我爱写真网

 找回密码
 免费注册
搜索
查看: 1699|回复: 0

[BT下载]神偷奶爸3[3D上下]2017.1080p.3D.BluRay.Half-OU.x264.DTS-X.7.1-FGT 16GB [复制链接]

  • TA的每日心情
    开心
    2012-6-25 01:10:04
  • 签到天数: 1 天

    [LV.1]初来乍到

    UID
    888
    主题
    501
    精华
    0
    积分
    509
    金钱
    1017
    写真币
    0
    阅读权限
    1
    在线时间
    0 小时
    注册时间
    2012-6-25
    最后登录
    2012-6-25
    发表于 2017-11-30 19:22:58 |显示全部楼层
    真爱旅舍:视频聊天室


    ◎译  名 神偷奶爸3/卑鄙的我3/坏蛋奖门人3(港)/神偷奶爸3之小小兵
    ◎片  名 Despicable Me 3
    ◎年  代 2017
    ◎产  地 美国
    ◎类  别 喜剧/动画/冒险
    ◎语  言 英语
    ◎上映日期 2017-06-14(安锡动画电影节)/2017-06-30(美国)/2017-07-07(中国大陆)
    ◎IMDb评分  6.3/10 from 37,900 users
    ◎IMDb链接  http://www.imdb.com/title/tt3469046/
    ◎豆瓣评分 6.9/10 from 96,465 users
    ◎豆瓣链接 https://movie.douban.com/subject/25812712/
    ◎BT之家整理 http://www.btbtt.me/
    ◎片  长 90分钟
    ◎导  演 凯尔·巴尔达 Kyle Balda / 皮艾尔·柯芬 Pierre Coffin / 埃里克·吉伦 Eric Guillon
    ◎主  演 史蒂夫·卡瑞尔 Steve Carell
          克里斯汀·韦格 Kristen Wiig
          崔·帕克 Trey Parker
          米兰达·卡斯格拉夫 Miranda Cosgrove
          达纳·盖尔 Dana Gaier
          内芙·沙雷尔 Nev Scharrel
          皮艾尔·柯芬 Pierre Coffin
          史蒂夫·库根 Steve Coogan
          朱莉·安德鲁斯 Julie Andrews
          珍妮·斯蕾特 Jenny Slate
          迈克尔·贝亚蒂 Michael Beattie
          安迪·尼曼 Andy Nyman
          阿德里安·奇斯卡托 Adrian Ciscato
          布莱恩·T·德莱尼 Brian T. Delaney
          肯·道里欧 Ken Daurio


    ◎简  介


      《神偷奶爸3》将延续前两部的温馨、搞笑风格,聚焦格鲁和露西的婚后生活,继续讲述格鲁和三个女儿的爆笑故事。“恶棍”奶爸格鲁将会如何对付大反派巴萨扎·布莱德,调皮可爱的小黄人们又会如何耍贱卖萌,无疑让全球观众万分期待。该片配音也最大程度沿用前作阵容,史蒂夫·卡瑞尔继续为男主角格鲁配音,皮埃尔·柯芬也将继续为经典角色小黄人配音,而新角色巴萨扎·布莱德则由《南方公园》主创元老崔·帕克为其配音。




    Video
    ID                                       : 1
    Format                                   : AVC
    Format/Info                              : Advanced Video Codec
    Format profile                           : High@L4.1
    Format settings, CABAC                   : Yes
    Format settings, ReFrames                : 3 frames
    Codec ID                                 : V_MPEG4/ISO/AVC
    Duration                                 : 1 h 29 min
    Nominal bit rate                         : 21.5 Mb/s
    Width                                    : 1 920 pixels
    Height                                   : 1 080 pixels
    Display aspect ratio                     : 16:9
    Frame rate mode                          : Constant
    Frame rate                               : 23.976 (24000/1001) FPS
    Color space                              : YUV
    Chroma subsampling                       : 4:2:0
    Bit depth                                : 8 bits
    Scan type                                : Progressive
    Bits/(Pixel*Frame)                       : 0.432
    Title                                    : Despicable.Me.3.2017.1080p.3D.BluRay.Half-OU.x264.DTS-X.7.1-FGT
    Writing library                          : x264 core 148
    Encoding settings                        : cabac=1 / ref=3 / deblock=1:-1:-1 / analyse=0x3:0 / me=hex / subme=5 / psy=1 / psy_rd=1.00:0.00 / mixed_ref=0 / me_range=16 / chroma_me=1 / trellis=1 / 8x8dct=1 / cqm=0 / deadzone=21,11 / fast_pskip=0 / chroma_qp_offset=0 / threads=8 / lookahead_threads=2 / sliced_threads=0 / nr=0 / decimate=1 / interlaced=0 / bluray_compat=0 / constrained_intra=0 / bframes=2 / b_pyramid=0 / b_adapt=1 / b_bias=0 / direct=1 / weightb=0 / open_gop=0 / weightp=0 / keyint=24 / keyint_min=2 / scenecut=40 / intra_refresh=0 / rc=abr / mbtree=0 / bitrate=21478 / ratetol=1.0 / qcomp=0.60 / qpmin=0 / qpmax=69 / qpstep=4 / ip_ratio=1.40 / pb_ratio=1.30 / aq=1:1.00
    Default                                  : Yes
    Forced                                   : No
    Color range                              : Limited
    Color primaries                          : BT.709
    Transfer characteristics                 : BT.709
    Matrix coefficients                      : BT.709


    Audio #1
    ID                                       : 2
    Format                                   : DTS
    Format/Info                              : Digital Theater Systems
    Format profile                           : X / MA / Core
    Mode                                     : 16
    Format settings, Endianness              : Big
    Codec ID                                 : A_DTS
    Bit rate mode                            : Variable / Variable / Constant
    Bit rate                                 : Unknown / Unknown / 1 509 kb/s
    Channel(s)                               : Object Based / 8 channels / 6 channels
    Channel positions                        : Object Based / Front: L C R, Side: L R, Back: L R, LFE / Front: L C R, Side: L R, LFE
    Sampling rate                            :  / 48.0 kHz / 48.0 kHz
    Frame rate                               : 93.750 FPS (512 spf)
    Bit depth                                :  / 24 bits / 24 bits
    Compression mode                         :  / Lossless / Lossy
    Title                                    : Despicable.Me.3.2017.1080p.3D.BluRay.Half-OU.x264.DTS-X.7.1-FGT
    Language                                 : English
    Default                                  : Yes
    Forced                                   : No


    Audio #2
    ID                                       : 3
    Format                                   : DTS
    Format/Info                              : Digital Theater Systems
    Mode                                     : 16
    Format settings, Endianness              : Big
    Codec ID                                 : A_DTS
    Duration                                 : 1 h 29 min
    Bit rate mode                            : Constant
    Bit rate                                 : 1 509 kb/s
    Channel(s)                               : 6 channels
    Channel positions                        : Front: L C R, Side: L R, LFE
    Sampling rate                            : 48.0 kHz
    Frame rate                               : 93.750 FPS (512 spf)
    Bit depth                                : 24 bits
    Compression mode                         : Lossy
    Stream size                              : 968 MiB (6%)
    Title                                    : Despicable.Me.3.2017.1080p.3D.BluRay.Half-OU.x264.DTS-X.7.1-FGT
    Language                                 : English
    Default                                  : No
    Forced                                   : No


    Audio #3
    ID                                       : 4
    Format                                   : DTS
    Format/Info                              : Digital Theater Systems
    Mode                                     : 16
    Format settings, Endianness              : Big
    Codec ID                                 : A_DTS
    Duration                                 : 1 h 29 min
    Bit rate mode                            : Constant
    Bit rate                                 : 255 kb/s
    Channel(s)                               : 2 channels
    Channel positions                        : Front: L R
    Sampling rate                            : 48.0 kHz
    Frame rate                               : 93.750 FPS (512 spf)
    Bit depth                                : 24 bits
    Compression mode                         : Lossy
    Stream size                              : 164 MiB (1%)
    Title                                    : Despicable.Me.3.2017.1080p.3D.BluRay.Half-OU.x264.DTS-X.7.1-FGT
    Language                                 : English
    Default                                  : No
    Forced                                   : No


    Audio #4
    ID                                       : 5
    Format                                   : AC-3
    Format/Info                              : Audio Coding 3
    Mode                                     : Dolby Digital
    Format settings, Endianness              : Big
    Codec ID                                 : A_AC3
    Duration                                 : 1 h 29 min
    Bit rate mode                            : Constant
    Bit rate                                 : 192 kb/s
    Channel(s)                               : 2 channels
    Channel positions                        : Front: L R
    Sampling rate                            : 48.0 kHz
    Frame rate                               : 31.250 FPS (1536 spf)
    Bit depth                                : 16 bits
    Compression mode                         : Lossy
    Stream size                              : 123 MiB (1%)
    Title                                    : Despicable.Me.3.2017.1080p.3D.BluRay.Half-OU.x264.DTS-X.7.1-FGT
    Language                                 : English
    Service kind                             : Complete Main
    Default                                  : No
    Forced                                   : No


    Text
    ID                                       : 6
    Format                                   : PGS
    Muxing mode                              : zlib
    Codec ID                                 : S_HDMV/PGS
    Codec ID/Info                            : Picture based subtitle format used on BDs/HD-DVDs
    Title                                    : English-PGS
    Language                                 : English
    Default                                  : Yes
    Forced                                   : No


    Menu
    00:00:00.000                             : en01)00:00:00:000
    00:03:06.102                             : en02)00:03:06:102
    00:07:57.977                             : en03)00:07:57:977
    00:11:12.838                             : en04)00:11:12:838
    00:16:15.766                             : en05)00:16:15:766
    00:20:07.497                             : en06)00:20:07:497
    00:24:07.988                             : en07)00:24:07:988
    00:28:57.068                             : en000:28:57:068
    00:32:55.348                             : en09)00:32:55:348
    00:39:01.839                             : en10)00:39:01:839
    00:42:44.186                             : en11)00:42:44:186
    00:46:47.179                             : en12)00:46:47:179
    00:50:55.635                             : en13)00:50:55:635
    00:56:12.077                             : en14)00:56:12:077
    01:00:02.265                             : en15)01:00:02:265
    01:05:41.228                             : en16)01:05:41:228
    01:10:14.543                             : en17)01:10:14:543
    01:14:33.760                             : en101:14:33:760
    01:19:29.723                             : en19)01:19:29:723
    01:21:56.995                             : en20)01:21:56:995







    附件: 你需要登录才可以下载或查看附件。没有帐号?免费注册

    使用道具 举报

    您需要登录后才可以回帖 登录 | 免费注册

    关闭

    站长强烈推荐

    激情视频直播聊天平台
    激情视频直播聊天平台
    视频聊天室,美女直播间,是台湾潮流前沿的真人美女直播互动社区,数万玩家与美女主播同时在线聊天、交友。真实互动,免费畅玩,同时为您提供最优质的服务。

    查看 »

    我爱写真网 ( 粤ICP备16074962号-1 )

    GMT+8, 2020-4-3 04:51 , Processed in 1.529877 second(s), 18 queries , Gzip On.

    Powered by 52写真网 X2

    © 2001-2011 Comsenz Inc.

    回顶部