我爱写真网

 找回密码
 免费注册
搜索
查看: 2285|回复: 0

[BT下载]变形金刚5[3D上下]2017.1080p.3D.BluRay.Half-OU.x264.DTS-HD.MA.7.1-FGT 25G ... [复制链接]

  • TA的每日心情
    开心
    2012-6-25 01:10:04
  • 签到天数: 1 天

    [LV.1]初来乍到

    UID
    888
    主题
    501
    精华
    0
    积分
    509
    金钱
    1017
    写真币
    0
    阅读权限
    1
    在线时间
    0 小时
    注册时间
    2012-6-25
    最后登录
    2012-6-25
    发表于 2017-12-1 08:34:26 |显示全部楼层
    真爱旅舍:视频聊天室


    ◎译  名 变形金刚5:最后的骑士/变形金刚:终极战士(港)/变形金刚5:最终骑士(台)/变形金刚5/变5
    ◎片  名 Transformers: The Last Knight
    ◎年  代 2017
    ◎产  地 美国
    ◎类  别 动作/科幻
    ◎语  言 英语
    ◎上映日期 2017-06-21(美国)/2017-06-23(中国大陆)
    ◎IMDb评分  5.3/10 from 46,189 users
    ◎IMDb链接  http://www.imdb.com/title/tt3371366/
    ◎豆瓣评分 4.8/10 from 105,258 users
    ◎豆瓣链接 https://movie.douban.com/subject/25824686/
    ◎BT之家整理 http://www.btbtt.me/
    ◎片  长 149分钟/150分钟(中国大陆)
    ◎导  演 迈克尔·贝 Michael Bay
    ◎主  演 马克·沃尔伯格 Mark Wahlberg
          伊莎贝拉·莫奈 Isabela Moner
          劳拉·哈德克 Laura Haddock
          安东尼·霍普金斯 Anthony Hopkins
          乔什·杜哈明 Josh Duhamel
          彼特·库伦 Peter Cullen
          约翰·古德曼 John Goodman
          斯坦利·图齐 Stanley Tucci
          桑地亚哥·卡布瑞拉 Santiago Cabrera
          吉尔·伯明翰 Gil Birmingham
          渡边谦 Ken Watanabe
          约翰·迪·玛吉欧 John Di Maggio
          弗兰克·维尔克 Frank Welker
          米彻·佩勒吉 Mitch Pileggi


    ◎简  介


      地球陷入毁灭危机,擎天柱失踪,越来越多的汽车人和霸天虎来到地球,前海豹突击队成员威廉·伦诺克斯( 乔什·杜哈明饰)成为了政府军组建的TRF中的一员,负责绞杀地球上的汽车人——不论好坏。在芝加哥街头,伦诺克斯遇到了凯德·伊格尔(马克·沃尔伯格饰)孤儿伊莎贝拉(伊莎贝拉·莫奈饰)。 凯德因为帮助、支持汽车人而成为政府通缉犯,所以他在一个垃圾场看管着一群幸存的汽车人。与此同时,失踪的擎天柱被女巫昆塔莎黑化,要毁灭地球。拯救世界的责任于是落在了这支由凯德为首的非同寻常的队伍身上,大黄蜂、一位英国爵士(安东尼·霍普金斯饰)还有一位牛津大学教授(劳拉·哈德克饰),一场史诗浩劫彻底将地球变成了战场 。


    Video
    ID                                       : 1
    Format                                   : AVC
    Format/Info                              : Advanced Video Codec
    Format profile                           : [email protected]
    Format settings, CABAC                   : Yes
    Format settings, ReFrames                : 3 frames
    Codec ID                                 : V_MPEG4/ISO/AVC
    Duration                                 : 2 h 34 min
    Nominal bit rate                         : 16.0 Mb/s
    Width                                    : 1 920 pixels
    Height                                   : 1 080 pixels
    Display aspect ratio                     : 16:9
    Frame rate mode                          : Constant
    Frame rate                               : 23.976 (24000/1001) FPS
    Color space                              : YUV
    Chroma subsampling                       : 4:2:0
    Bit depth                                : 8 bits
    Scan type                                : Progressive
    Bits/(Pixel*Frame)                       : 0.322
    Title                                    : Transformers.The.Last.Knight.2017.1080p.3D.BluRay.Half-OU.x264.DTS-HD.MA.7.1-FGT
    Writing library                          : x264 core 148
    Encoding settings                        : cabac=1 / ref=3 / deblock=1:-1:-1 / analyse=0x3:0 / me=hex / subme=5 / psy=1 / psy_rd=1.00:0.00 / mixed_ref=0 / me_range=16 / chroma_me=1 / trellis=1 / 8x8dct=1 / cqm=0 / deadzone=21,11 / fast_pskip=0 / chroma_qp_offset=0 / threads=8 / lookahead_threads=2 / sliced_threads=0 / nr=0 / decimate=1 / interlaced=0 / bluray_compat=0 / constrained_intra=0 / bframes=2 / b_pyramid=0 / b_adapt=1 / b_bias=0 / direct=1 / weightb=0 / open_gop=0 / weightp=0 / keyint=24 / keyint_min=2 / scenecut=40 / intra_refresh=0 / rc=abr / mbtree=0 / bitrate=16000 / ratetol=1.0 / qcomp=0.60 / qpmin=0 / qpmax=69 / qpstep=4 / ip_ratio=1.40 / pb_ratio=1.30 / aq=1:1.00
    Default                                  : Yes
    Forced                                   : No
    Color range                              : Limited
    Color primaries                          : BT.709
    Transfer characteristics                 : BT.709
    Matrix coefficients                      : BT.709


    Audio #1
    ID                                       : 2
    Format                                   : DTS
    Format/Info                              : Digital Theater Systems
    Format profile                           : MA / Core
    Mode                                     : 16
    Format settings, Endianness              : Big
    Codec ID                                 : A_DTS
    Duration                                 : 2 h 34 min
    Bit rate mode                            : Variable / Constant
    Bit rate                                 : Unknown / 1 509 kb/s
    Channel(s)                               : 8 channels / 6 channels
    Channel positions                        : Front: L C R, Side: L R, Back: L R, LFE / Front: L C R, Side: L R, LFE
    Sampling rate                            : 48.0 kHz
    Frame rate                               : 93.750 FPS (512 spf)
    Bit depth                                : 24 bits
    Compression mode                         : Lossless / Lossy
    Title                                    : Transformers.The.Last.Knight.2017.1080p.3D.BluRay.Half-OU.x264.DTS-HD.MA.7.1-FGT
    Language                                 : English
    Default                                  : Yes
    Forced                                   : No


    Audio #2
    ID                                       : 3
    Format                                   : AC-3
    Format/Info                              : Audio Coding 3
    Format settings, Endianness              : Big
    Codec ID                                 : A_AC3
    Duration                                 : 2 h 34 min
    Bit rate mode                            : Constant
    Bit rate                                 : 640 kb/s
    Channel(s)                               : 6 channels
    Channel positions                        : Front: L C R, Side: L R, LFE
    Sampling rate                            : 48.0 kHz
    Frame rate                               : 31.250 FPS (1536 spf)
    Bit depth                                : 16 bits
    Compression mode                         : Lossy
    Stream size                              : 708 MiB (3%)
    Title                                    : Transformers.The.Last.Knight.2017.1080p.3D.BluRay.Half-OU.x264.DTS-HD.MA.7.1-FGT
    Language                                 : English
    Service kind                             : Complete Main
    Default                                  : No
    Forced                                   : No


    Audio #3
    ID                                       : 4
    Format                                   : AC-3
    Format/Info                              : Audio Coding 3
    Format settings, Endianness              : Big
    Codec ID                                 : A_AC3
    Duration                                 : 2 h 34 min
    Bit rate mode                            : Constant
    Bit rate                                 : 640 kb/s
    Channel(s)                               : 6 channels
    Channel positions                        : Front: L C R, Side: L R, LFE
    Sampling rate                            : 48.0 kHz
    Frame rate                               : 31.250 FPS (1536 spf)
    Bit depth                                : 16 bits
    Compression mode                         : Lossy
    Stream size                              : 708 MiB (3%)
    Title                                    : Transformers.The.Last.Knight.2017.1080p.3D.BluRay.Half-OU.x264.DTS-HD.MA.7.1-FGT
    Language                                 : English
    Service kind                             : Complete Main
    Default                                  : No
    Forced                                   : No


    Audio #4
    ID                                       : 5
    Format                                   : AC-3
    Format/Info                              : Audio Coding 3
    Mode                                     : Dolby Digital
    Format settings, Endianness              : Big
    Codec ID                                 : A_AC3
    Duration                                 : 2 h 34 min
    Bit rate mode                            : Constant
    Bit rate                                 : 224 kb/s
    Channel(s)                               : 2 channels
    Channel positions                        : Front: L R
    Sampling rate                            : 48.0 kHz
    Frame rate                               : 31.250 FPS (1536 spf)
    Bit depth                                : 16 bits
    Compression mode                         : Lossy
    Stream size                              : 248 MiB (1%)
    Title                                    : Transformers.The.Last.Knight.2017.1080p.3D.BluRay.Half-OU.x264.DTS-HD.MA.7.1-FGT
    Language                                 : English
    Service kind                             : Complete Main
    Default                                  : No
    Forced                                   : No


    Audio #5
    ID                                       : 6
    Format                                   : AC-3
    Format/Info                              : Audio Coding 3
    Format settings, Endianness              : Big
    Codec ID                                 : A_AC3
    Duration                                 : 2 h 34 min
    Bit rate mode                            : Constant
    Bit rate                                 : 640 kb/s
    Channel(s)                               : 6 channels
    Channel positions                        : Front: L C R, Side: L R, LFE
    Sampling rate                            : 48.0 kHz
    Frame rate                               : 31.250 FPS (1536 spf)
    Bit depth                                : 16 bits
    Compression mode                         : Lossy
    Stream size                              : 708 MiB (3%)
    Title                                    : Transformers.The.Last.Knight.2017.1080p.3D.BluRay.Half-OU.x264.DTS-HD.MA.7.1-FGT
    Language                                 : French
    Service kind                             : Complete Main
    Default                                  : No
    Forced                                   : No


    Audio #6
    ID                                       : 7
    Format                                   : AC-3
    Format/Info                              : Audio Coding 3
    Format settings, Endianness              : Big
    Codec ID                                 : A_AC3
    Duration                                 : 2 h 34 min
    Bit rate mode                            : Constant
    Bit rate                                 : 640 kb/s
    Channel(s)                               : 6 channels
    Channel positions                        : Front: L C R, Side: L R, LFE
    Sampling rate                            : 48.0 kHz
    Frame rate                               : 31.250 FPS (1536 spf)
    Bit depth                                : 16 bits
    Compression mode                         : Lossy
    Stream size                              : 708 MiB (3%)
    Title                                    : Transformers.The.Last.Knight.2017.1080p.3D.BluRay.Half-OU.x264.DTS-HD.MA.7.1-FGT
    Language                                 : Spanish
    Service kind                             : Complete Main
    Default                                  : No
    Forced                                   : No


    Audio #7
    ID                                       : 8
    Format                                   : AC-3
    Format/Info                              : Audio Coding 3
    Format settings, Endianness              : Big
    Codec ID                                 : A_AC3
    Duration                                 : 2 h 34 min
    Bit rate mode                            : Constant
    Bit rate                                 : 640 kb/s
    Channel(s)                               : 6 channels
    Channel positions                        : Front: L C R, Side: L R, LFE
    Sampling rate                            : 48.0 kHz
    Frame rate                               : 31.250 FPS (1536 spf)
    Bit depth                                : 16 bits
    Compression mode                         : Lossy
    Stream size                              : 708 MiB (3%)
    Title                                    : Transformers.The.Last.Knight.2017.1080p.3D.BluRay.Half-OU.x264.DTS-HD.MA.7.1-FGT
    Language                                 : Portuguese
    Service kind                             : Complete Main
    Default                                  : No
    Forced                                   : No


    Audio #8
    ID                                       : 9
    Format                                   : AC-3
    Format/Info                              : Audio Coding 3
    Format settings, Endianness              : Big
    Codec ID                                 : A_AC3
    Duration                                 : 2 h 34 min
    Bit rate mode                            : Constant
    Bit rate                                 : 640 kb/s
    Channel(s)                               : 6 channels
    Channel positions                        : Front: L C R, Side: L R, LFE
    Sampling rate                            : 48.0 kHz
    Frame rate                               : 31.250 FPS (1536 spf)
    Bit depth                                : 16 bits
    Compression mode                         : Lossy
    Stream size                              : 708 MiB (3%)
    Title                                    : Transformers.The.Last.Knight.2017.1080p.3D.BluRay.Half-OU.x264.DTS-HD.MA.7.1-FGT
    Language                                 : English
    Service kind                             : Complete Main
    Default                                  : No
    Forced                                   : No


    Text #1
    ID                                       : 10
    Format                                   : PGS
    Muxing mode                              : zlib
    Codec ID                                 : S_HDMV/PGS
    Codec ID/Info                            : Picture based subtitle format used on BDs/HD-DVDs
    Title                                    : English-PGS
    Language                                 : English
    Default                                  : Yes
    Forced                                   : No


    Text #2
    ID                                       : 11
    Format                                   : PGS
    Muxing mode                              : zlib
    Codec ID                                 : S_HDMV/PGS
    Codec ID/Info                            : Picture based subtitle format used on BDs/HD-DVDs
    Title                                    : English-SDH-PGS
    Language                                 : English
    Default                                  : No
    Forced                                   : No


    Text #3
    ID                                       : 12
    Format                                   : PGS
    Muxing mode                              : zlib
    Codec ID                                 : S_HDMV/PGS
    Codec ID/Info                            : Picture based subtitle format used on BDs/HD-DVDs
    Title                                    : French-PGS
    Language                                 : French
    Default                                  : No
    Forced                                   : No


    Text #4
    ID                                       : 13
    Format                                   : PGS
    Muxing mode                              : zlib
    Codec ID                                 : S_HDMV/PGS
    Codec ID/Info                            : Picture based subtitle format used on BDs/HD-DVDs
    Title                                    : Spanish-PGS
    Language                                 : Spanish
    Default                                  : No
    Forced                                   : No


    Text #5
    ID                                       : 14
    Format                                   : PGS
    Muxing mode                              : zlib
    Codec ID                                 : S_HDMV/PGS
    Codec ID/Info                            : Picture based subtitle format used on BDs/HD-DVDs
    Title                                    : Portuguese-PGS
    Language                                 : Portuguese
    Default                                  : No
    Forced                                   : No


    Menu
    00:00:00.000                             : en01)00:00:00:000
    00:06:35.269                             : en02)00:06:35:269
    00:14:02.633                             : en03)00:14:02:633
    00:21:44.928                             : en04)00:21:44:928
    00:27:52.420                             : en05)00:27:52:420
    00:33:53.072                             : en06)00:33:53:072
    00:40:08.072                             : en07)00:40:08:072
    00:46:58.106                             : en000:46:58:106
    00:53:24.951                             : en09)00:53:24:951
    01:02:02.093                             : en10)01:02:02:093
    01:08:46.247                             : en11)01:08:46:247
    01:14:36.388                             : en12)01:14:36:388
    01:20:09.346                             : en13)01:20:09:346
    01:29:12.555                             : en14)01:29:12:555
    01:37:58.664                             : en15)01:37:58:664
    01:44:56.748                             : en16)01:44:56:748
    01:51:14.668                             : en17)01:51:14:668
    01:57:58.613                             : en101:57:58:613
    02:06:08.894                             : en19)02:06:08:894
    02:10:53.262                             : en20)02:10:53:262
    02:16:00.318                             : en21)02:16:00:318
    02:21:41.784                             : en22)02:21:41:784
    02:25:16.457                             : en23)02:25:16:457






    附件: 你需要登录才可以下载或查看附件。没有帐号?免费注册

    使用道具 举报

    您需要登录后才可以回帖 登录 | 免费注册

    关闭

    站长强烈推荐

    激情影院安卓手机APP在线观看
    激情影院安卓手机APP在线观看
    激情影院,激情视频电影天堂,激情伦理片在线观看-服务于全球华人用户,致力成为最具传播力、互动性、权威性的互联网信息。

    查看 »

    我爱写真网 ( 粤ICP备16074962号-1 )

    GMT+8, 2020-7-8 14:40 , Processed in 1.366187 second(s), 18 queries , Gzip On.

    Powered by 52写真网 X2

    © 2001-2011 Comsenz Inc.

    回顶部